Flip MinoHD Kayıt Formatı

'Diğer Donanımlar' bölümünde Recep Baltaş tarafından 19 Mart 2011 tarihinde başlatılan konu.

  1. Recep Baltaş

    Recep Baltaş Technopat Yönetici

    Katılım:
    14 Ağustos 2010
    Mesajlar:
    51.897
    Beğenileri:
    42.481
    Yer:
    İstanbul
    General
    Complete name : F:\DCIM\100VIDEO\VID00011.MP4
    Format : MPEG-4
    Format profile : Sony PSP
    Codec ID : MSNV
    File size : 84.5 MiB
    Duration : 1mn 17s
    Overall bit rate : 9 107 Kbps
    Encoded date : UTC 2011-03-19 12:03:13
    Tagged date : UTC 2011-03-19 12:03:13

    Video
    ID : 1
    Format : AVC
    Format/Info : Advanced Video Codec
    Format profile : [email protected]
    Format settings, CABAC : Yes
    Format settings, ReFrames : 1 frame
    Format settings, GOP : M=1, N=10
    Codec ID : avc1
    Codec ID/Info : Advanced Video Coding
    Duration : 1mn 17s
    Bit rate mode : Constant
    Bit rate : 8 969 Kbps
    Nominal bit rate : 16.0 Mbps
    Width : 1 280 pixels
    Height : 720 pixels
    Display aspect ratio : 16:9
    Frame rate mode : Constant
    Frame rate : 30.000 fps
    Original frame rate : 29.970 fps
    Color space : YUV
    Chroma subsampling : 4:2:0
    Bit depth : 8 bits
    Scan type : Progressive
    Bits/(Pixel*Frame) : 0.324
    Stream size : 83.2 MiB (98%)
    Language : Japanese
    Encoded date : UTC 2011-03-19 12:03:13
    Tagged date : UTC 2011-03-19 12:03:13

    Audio
    ID : 2
    Format : AAC
    Format/Info : Advanced Audio Codec
    Format profile : LC
    Codec ID : 40
    Duration : 1mn 17s
    Bit rate mode : Constant
    Bit rate : 132.3 Kbps
    Channel(s) : 2 channels
    Channel positions : Front: L R
    Sampling rate : 44.1 KHz
    Compression mode : Lossy
    Stream size : 1.22 MiB (1%)
    Language : Japanese
    Encoded date : UTC 2011-03-19 12:03:13
    Tagged date : UTC 2011-03-19 12:03:13
     

Sayfayı Paylaş